Создать ответ 
 
Рейтинг темы:
  • Голосов: 0 - Средняя оценка: 0
  • 1
  • 2
  • 3
  • 4
  • 5
gdi образ
Автор Сообщение
вадим Не на форуме
Пользователь
**

Сообщений: 28
Зарегистрирован: 06.03.2009
Рейтинг: 0
Сказал спасибо: 0
Поблагодарили 1 раз(а) в 1 сообщ.
Сообщение: #1
gdi образ
Всем привет
имеется gdi образ Alone in the Dark - The New Nightmare
после рапоковки архива Alone in the Dark - The New Nightmare (Disc 1 of 2).zip получил 6 файлов

Alone in the Dark - The New Nightmare (Disc 1 of 2).gdi (149 байт)
track01.bin 15,3 мб
track02.raw 13,3 мб
track03.bin 112 мб
track04.raw 13,1 мб
track05.bin 980 мб
вопрос как из этих ткэков выдрать файлы игры:(
07.03.2009 00:07
Найти все сообщения Цитировать это сообщение
SWAT Не на форуме
Администратор
*******

Сообщений: 6695
Зарегистрирован: 04.01.2005
Рейтинг: 28
Сказал спасибо: 78
Поблагодарили 643 раз(а) в 470 сообщ.
Сообщение: #2
gdi образ
А зачем?

[Изображение: barbers.png]
07.03.2009 09:34
Вебсайт Найти все сообщения Цитировать это сообщение
вадим Не на форуме
Пользователь
**

Сообщений: 28
Зарегистрирован: 06.03.2009
Рейтинг: 0
Сказал спасибо: 0
Поблагодарили 1 раз(а) в 1 сообщ.
Сообщение: #3
gdi образ
хочу попробовать сделать полную версию Alone in the Dark - The New Nightmare на 2x 99min. cdr:rolleyes:
07.03.2009 11:16
Найти все сообщения Цитировать это сообщение
SunDragon Не на форуме
Продвинутый
***

Сообщений: 469
Зарегистрирован: 29.01.2005
Рейтинг: 0
Сказал спасибо: 0
Поблагодарили 5 раз(а) в 5 сообщ.
Сообщение: #4
gdi образ
вот линк

хотя к примеру чтобы вытащить данные из ntsc версии (первый диск) можно использовать такой cue файл
Код:
FILE "track03.bin" BINARY
TRACK 03 MODE1/2352
PREGAP 10:00:00
INDEX 01 00:00:00
POSTGAP 12:28:67

FILE "track05.bin" BINARY
TRACK 04 MODE1/2352
INDEX 01 00:00:00

замаунти его в виртуальный диск, к примеру через DAEMON Tools
и открой виртуальный диск с помощью IsoBuster.

Еще как вариант можешь напрямую вставить cue файл в программу CDMage.
07.03.2009 13:18
Найти все сообщения Цитировать это сообщение
Василий Не на форуме
aka VasiliyDC and Basilio
****

Сообщений: 598
Зарегистрирован: 23.04.2008
Рейтинг: 0
Сказал спасибо: 14
Поблагодарили 13 раз(а) в 12 сообщ.
Сообщение: #5
gdi образ
Цитата:хочу попробовать сделать полную версию Alone in the Dark - The New Nightmare на 2x 99min. cdr rolleyes.gif
Есть такой рип !
Код:
==============================================================================
==================  Alone in the Dark - The New Nightmare  ===================
==============================================================================

= File Info =

Source : TOSEC GDI
Region : NTSC (En)
Released : 11/8/08

CD's / Size : 2 cd's / 700mb
CD 1 Filename / rar's : ovr-aitd4-cd1.r00 / 38 rars
CD 2 Filename / rar's : ovr-aitd4-cd2.r00 / 39 rars

Platform : Sega Dreamcast (DC)
Format : CDI ( Alcohol %120 || Disc Juggler )

==============================================================================

= Release Notes =

This release is my landmark for 4Xm movie encoding; previous groups had major
trouble figuring out this video codec.  Due to this fact, GeNiuS decided to
split this game onto 4 cd's, and still ripped out intro movie.  PulSar ended
up ripping out almost every movie.  I mean no disrespect to previous groups,
simply explaining why I have chosen to make this release; not a single file
has been ripped out and it all fits nicely onto 2 cd's.

Due to the fact that this disc requires LBA of 45000, it was necessary to use
1st session for game data aswell, using a small dummy file to pad data to LBA
45000.  It was possible to retain original file sort across both sessions of
disc, but this game specifically has trouble loading the .XA files from 1st
session. So instead I filled the first session with 4Xm movies, then retained
original file sort in 2nd session, minus the data in first session.

This rip was a beast, so I hope you all enjoy.

Ripped:
Nothing

Downsampled:
1 adx audio track downsampled from 44khz stereo to 44khz mono
On disc 1 7 of 29 4Xm movies have been downsampled
On disc 2 25 of 27 4Xm movies have been downsampled
On disc 2 10 largest .XA downsampled from 22khz mono to 16khz mono

Technical 4Xm Downsample Info:
Video resolution changed from 640x320 to 320x160 ( 1/4 original size )
Video bitrate reduced to about 1/3 - 1/5 original size
Audio changed from 44khz stereo 4XADPCM to 44khz mono 4XADPCM

Other:
All .XA are simply AFS and have been losslessly compressed using AFS Compactor

==============================================================================
==Respect to TOSEC group for providing high-quality dumps   ==
==============================================================================
  11/8/08  -OVERRiDE
==============================================================================

CD1:
http://www.megaupload.com/?d=J4R12SX9
http://www.megaupload.com/?d=FOQBGD0I

CD2:
http://www.megaupload.com/?d=V4S1TE0T
http://www.megaupload.com/?d=JU5HK002

Сообщество фанатов Sega Dreamcast http://dreamcast.org.ru/forum/
07.03.2009 14:19
Найти все сообщения Цитировать это сообщение
вадим Не на форуме
Пользователь
**

Сообщений: 28
Зарегистрирован: 06.03.2009
Рейтинг: 0
Сказал спасибо: 0
Поблагодарили 1 раз(а) в 1 сообщ.
Сообщение: #6
gdi образ
Цитата:вот линк

хотя к примеру чтобы вытащить данные из ntsc версии (первый диск) можно использовать такой cue файл
Код:
FILE "track03.bin" BINARY
TRACK 03 MODE1/2352
PREGAP 10:00:00
INDEX 01 00:00:00
POSTGAP 12:28:67

FILE "track05.bin" BINARY
TRACK 04 MODE1/2352
INDEX 01 00:00:00

замаунти его в виртуальный диск, к примеру через DAEMON Tools
и открой виртуальный диск с помощью IsoBuster.

Еще как вариант можешь напрямую вставить cue файл в программу CDMage.

у меня pal версия
я думаю это большой роли не играет
создал я cue файл

FILE "track03.bin" BINARY
TRACK 03 MODE1/2352
PREGAP 10:00:00
INDEX 01 00:00:00
POSTGAP 12:28:67

FILE "track05.bin" BINARY
TRACK 04 MODE1/2352
INDEX 01 00:00:00

окрыл его через CDMage
для пробы решил извлеч из папки movies файл TRAILER.4xm файл извлёкся решил его просмотреть с помощю проги 4X Movie Player но он не захотел его проигрывать:( Видать TRAILER.4xm извлёкся не правильно (повторное извлечение не чего не дало другие файлы .4xm тоже не проигрываются ) у меня есть Alone in the Dark от вектора тамошнее 4xm видео проигрывается

какие будут соображения?????




07.03.2009 17:20
Найти все сообщения Цитировать это сообщение
SunDragon Не на форуме
Продвинутый
***

Сообщений: 469
Зарегистрирован: 29.01.2005
Рейтинг: 0
Сказал спасибо: 0
Поблагодарили 5 раз(а) в 5 сообщ.
Сообщение: #7
gdi образ
вот для первого диска
Код:
FILE "track03.bin" BINARY
TRACK 03 MODE1/2352
PREGAP 10:00:00
INDEX 01 00:00:00
POSTGAP 12:29:27

FILE "track05.bin" BINARY
TRACK 04 MODE1/2352
INDEX 01 00:00:00

для второго
Код:
FILE "track03.bin" BINARY
TRACK 03 MODE1/2352
PREGAP 10:00:00
INDEX 01 00:00:00
POSTGAP 03:23:10

FILE "track05.bin" BINARY
TRACK 04 MODE1/2352
INDEX 01 00:00:00
(Последний раз сообщение было отредактировано 07.03.2009 в 18:01, отредактировал пользователь SunDragon.)
07.03.2009 18:00
Найти все сообщения Цитировать это сообщение
вадим Не на форуме
Пользователь
**

Сообщений: 28
Зарегистрирован: 06.03.2009
Рейтинг: 0
Сказал спасибо: 0
Поблагодарили 1 раз(а) в 1 сообщ.
Сообщение: #8
gdi образ
Цитата:вот для первого диска
Код:
FILE "track03.bin" BINARY
TRACK 03 MODE1/2352
PREGAP 10:00:00
INDEX 01 00:00:00
POSTGAP 12:29:27

FILE "track05.bin" BINARY
TRACK 04 MODE1/2352
INDEX 01 00:00:00

для второго
Код:
FILE "track03.bin" BINARY
TRACK 03 MODE1/2352
PREGAP 10:00:00
INDEX 01 00:00:00
POSTGAP 03:23:10

FILE "track05.bin" BINARY
TRACK 04 MODE1/2352
INDEX 01 00:00:00

не помогло :(
(Последний раз сообщение было отредактировано 07.03.2009 в 20:06, отредактировал пользователь вадим.)
07.03.2009 20:05
Найти все сообщения Цитировать это сообщение
SunDragon Не на форуме
Продвинутый
***

Сообщений: 469
Зарегистрирован: 29.01.2005
Рейтинг: 0
Сказал спасибо: 0
Поблагодарили 5 раз(а) в 5 сообщ.
Сообщение: #9
gdi образ
а если так
Код:
FILE "track03.bin" BINARY
TRACK 03 MODE1/2352
PREGAP 10:00:00
INDEX 01 00:00:00
POSTGAP 00:02:00

FILE "track04.raw" BINARY
TRACK 04 AUDIO
INDEX 01 00:00:00
POSTGAP 00:02:00

FILE "track05.bin" BINARY
TRACK 05 MODE1/2352
INDEX 01 00:00:00

попробуй еще извлечь и поиграть adx файл
и ещё через DAEMON Tools и IsoBuster попробуй извлечь.

содержимое файла gdi напиши.
07.03.2009 21:09
Найти все сообщения Цитировать это сообщение
вадим Не на форуме
Пользователь
**

Сообщений: 28
Зарегистрирован: 06.03.2009
Рейтинг: 0
Сказал спасибо: 0
Поблагодарили 1 раз(а) в 1 сообщ.
Сообщение: #10
gdi образ
5
1 0 4 2352 track01.bin 0
2 6985 0 2352 track02.raw 0
3 45000 4 2352 track03.bin 0
4 95417 0 2352 track04.raw 0
5 101442 4 2352 track05.bin 0
(Последний раз сообщение было отредактировано 07.03.2009 в 22:03, отредактировал пользователь вадим.)
07.03.2009 22:02
Найти все сообщения Цитировать это сообщение
SunDragon Не на форуме
Продвинутый
***

Сообщений: 469
Зарегистрирован: 29.01.2005
Рейтинг: 0
Сказал спасибо: 0
Поблагодарили 5 раз(а) в 5 сообщ.
Сообщение: #11
gdi образ
должно работать
07.03.2009 22:27
Найти все сообщения Цитировать это сообщение
вадим Не на форуме
Пользователь
**

Сообщений: 28
Зарегистрирован: 06.03.2009
Рейтинг: 0
Сказал спасибо: 0
Поблагодарили 1 раз(а) в 1 сообщ.
Сообщение: #12
gdi образ
[quote name='SunDragon' date='07.03.2009, 20:09' post='15776']
а если так
Код:
FILE "track03.bin" BINARY
TRACK 03 MODE1/2352
PREGAP 10:00:00
INDEX 01 00:00:00
POSTGAP 00:02:00

FILE "track04.raw" BINARY
TRACK 04 AUDIO
INDEX 01 00:00:00
POSTGAP 00:02:00

FILE "track05.bin" BINARY
TRACK 05 MODE1/2352
INDEX 01 00:00:00




НАКОНЕЦ ТО ЗАРАБОТАЛО!!!!!!!!!!!
4xm видео проигрывается
PVR текстуры просматриваются
COPELAND.ADX проигрываетя (там песня в стиле рок)
будем надеется другие файлы тоже нормально излекутся

буду пробывать 2х диск

SunDragon Большое Спосибо



07.03.2009 23:02
Найти все сообщения Цитировать это сообщение
Создать ответ 


Похожие темы
Тема: Автор Ответов: Просмотров: Посл. сообщение
  Образ Dreamkey 2 gmaneye 1 3807 02.04.2019 12:59
Посл. сообщение: alex
  Чем снять образ на Макинтоше? Lin 3 10008 19.02.2011 20:57
Посл. сообщение: sc_maxim
  Образ Мега Драйва Guest 6 13241 20.08.2006 04:15
Посл. сообщение: cptPauer
  Как записать образ ? Guest 23 48875 28.07.2005 10:11
Посл. сообщение: LEUMAS

Переход:


Пользователи просматривают эту тему: 1 Гость(ей)